Dismiss Notice
How to See Hidden Content------------------------------- CLICK HERE--------------

Alien Covenant 2017 720p BluRay x264 Dual-Audio[Hindi-English][AAC.5.1] - Hon3y - 1.10 G

Discussion in 'Hollywood-Dual Audio' started by FREEPREMIUM, Sep 6, 2017.

  1. FREEPREMIUM

    FREEPREMIUM Administrator Staff Member Administrator

    Joined:
    Apr 18, 2017
    Messages:
    2,100
    Likes Received:
    47,993
    Trophy Points:
    113
    [​IMG]

    Code:
    General
    General
    Format                      : Matroska
    Format version              : Version 4 / Version 2
    File size                   : 1.10 GiB
    Duration                    : 2 h 2 min
    Overall bit rate            : 1 291 kb/s
    
    Video
    ID                          : 1
    Format                      : AVC
    Format/Info                 : Advanced Video Codec
    Format profile              : [email protected]
    Format settings, CABAC      : Yes
    Format settings, RefFrames  : 12 frames
    Codec ID                    : V_MPEG4/ISO/AVC
    Duration                    : 2 h 2 min
    Bit rate                    : 1 000 kb/s
    Width                       : 1 280 pixels
    Height                      : 536 pixels
    Display aspect ratio        : 2.40:1
    Frame rate mode             : Constant
    Frame rate                  : 23.976 (24000/1001) FPS
    Color space                 : YUV
    Chroma subsampling          : 4:2:0
    Bit depth                   : 8 bits
    Scan type                   : Progressive
    Bits/(Pixel*Frame)          : 0.061
    Stream size                 : 873 MiB (77%)
    Title                       : Hon3yHD
    
    Audios Credits: Rohit Sharma - Thank u bro
    
    Audio #1
    ID                          : 2
    Format                      : AAC
    Format/Info                 : Advanced Audio Codec
    Format profile              : LC
    Codec ID                    : A_AAC
    Duration                    : 2 h 2 min
    Bit rate                    : 192 kb/s
    Channel(s)                  : 6 channels
    Channel positions           : Front: L C R, Side: L R, LFE
    Sampling rate               : 48.0 kHz
    Frame rate                  : 46.875 FPS (1024 SPF)
    Compression mode            : Lossy
    Delay relative to video     : 9 ms
    Stream size                 : 167 MiB (15%)
    Title                       : Hindi AAC 5.1 192Kbps - Hon3y
    Language                    : Hindi
    Default                     : Yes
    Forced                      : Yes
    
    Audio #2
    ID                          : 3
    Format                      : AAC
    Format/Info                 : Advanced Audio Codec
    Format profile              : LC
    Codec ID                    : A_AAC
    Duration                    : 2 h 2 min
    Bit rate                    : 96.0 kb/s
    Channel(s)                  : 6 channels
    Channel positions           : Front: L C R, Side: L R, LFE
    Sampling rate               : 48.0 kHz
    Frame rate                  : 46.875 FPS (1024 SPF)
    Compression mode            : Lossy
    Delay relative to video     : 9 ms
    Stream size                 : 83.4 MiB (7%)
    Title                       : English AAC 5.1 96Kbps - Hon3y
    Language                    : English
    Default                     : No
    Forced                      : No
    
    Text
    ID                          : 4
    Format                      : UTF-8
    Codec ID                    : S_TEXT/UTF8
    Codec ID/Info               : UTF-8 Plain Text
    Duration                    : 1 h 54 min
    Bit rate                    : 53 b/s
    Count of elements           : 1709
    Stream size                 : 44.4 KiB (0%)
    Title                       : English - Hon3y
    Language                    : English
    Default                     : No
    Forced                      : No
    
    Menu
    00:00:00.000                : :Chapter 01
    00:04:47.662                : :Chapter 03
    00:13:07.495                : :Chapter 05
    00:18:11.924                : :Chapter 07
    00:22:46.448                : :Chapter 09
    00:27:51.169                : :Chapter 11
    00:33:12.907                : :Chapter 13
    00:37:18.736                : :Chapter 15
    00:42:19.912                : :Chapter 17
    00:47:43.694                : :Chapter 19
    00:52:04.371                : :Chapter 21
    00:55:56.269                : :Chapter 23
    01:00:17.447                : :Chapter 25
    01:06:20.643                : :Chapter 27
    01:11:25.030                : :Chapter 29
    01:16:35.882                : :Chapter 31
    01:21:10.031                : :Chapter 33
    01:28:18.793                : :Chapter 35
    01:31:21.559                : :Chapter 37
    01:34:52.436                : :Chapter 39
    01:39:23.666                : :Chapter 41
    01:43:35.876                : :Chapter 43
    01:50:49.309                : :Chapter 45
    01:55:27.754                : :Chapter 47
    02:02:03.065                : :Chapter 48
    
    Screens
    [​IMG]
    [​IMG] [​IMG] [​IMG] [​IMG] [​IMG]

    Download Links
    Hidden Content:
    **Hidden Content: You must click 'Like' before you can see the hidden data contained here.**
    CREDIT: Hon3y
     

  2. anshuman99778811

    anshuman99778811 New Member

    Joined:
    Apr 3, 2018
    Messages:
    17
    Likes Received:
    0
    Trophy Points:
    1
    Gender:
    Male
    I really like it and I love this website
     

  3. ParthParmar

    ParthParmar New Member

    Joined:
    May 18, 2018
    Messages:
    1
    Likes Received:
    0
    Trophy Points:
    0
    Gender:
    Male
    Thanks so much man!
     
    Last edited by a moderator: May 18, 2018

Share This Page

Share