Dismiss Notice
How to See Hidden Content------------------------------- CLICK HERE--------------

Black Panther 2018 English 720p BluRay H264 AAC - 1.6 GB

Discussion in 'Hollywood-English' started by FREEPREMIUM, May 2, 2018.

  1. FREEPREMIUM

    FREEPREMIUM Administrator Staff Member Administrator

    Joined:
    Apr 18, 2017
    Messages:
    2,520
    Likes Received:
    62,628
    Trophy Points:
    113

    [​IMG]



    Media Info :

    Video
    ID : 1
    Format : AVC
    Format/Info : Advanced Video Codec
    Format profile : [email protected]
    Format settings : CABAC / 4 Ref Frames
    Format settings, CABAC : Yes
    Format settings, ReFrames : 4 frames
    Codec ID : avc1
    Codec ID/Info : Advanced Video Coding
    Duration : 2 h 14 min
    Bit rate : 1 500 kb/s
    Width : 1 280 pixels
    Height : 536 pixels
    Display aspect ratio : 2.40:1
    Frame rate mode : Constant
    Frame rate : 23.976 (23976/1000) FPS
    Color space : YUV
    Chroma subsampling : 4:2:0
    Bit depth : 8 bits
    Scan type : Progressive
    Bits/(Pixel*Frame) : 0.091
    Stream size : 1.41 GiB (87%)
    Writing library : x264 core 152 r2851M ba24899
    Encoding settings : cabac=1 / ref=4 / deblock=1:-1:-1 / analyse=0x3:0x113 / me=umh / subme=9 / psy=1 / psy_rd=1.00:0.15 / mixed_ref=1 / me_range=24 / chroma_me=1 / trellis=2 / 8x8dct=1 / cqm=0 / deadzone=21,11 / fast_pskip=1 / chroma_qp_offset=-3 / threads=32 / lookahead_threads=4 / sliced_threads=0 / nr=0 / decimate=1 / interlaced=0 / bluray_compat=0 / constrained_intra=0 / bframes=3 / b_pyramid=2 / b_adapt=2 / b_bias=0 / direct=3 / weightb=1 / open_gop=0 / weightp=2 / keyint=250 / keyint_min=25 / scenecut=40 / intra_refresh=0 / rc_lookahead=50 / rc=2pass / mbtree=1 / bitrate=1500 / ratetol=1.0 / qcomp=0.60 / qpmin=0 / qpmax=69 / qpstep=4 / cplxblur=20.0 / qblur=0.5 / vbv_maxrate=31250 / vbv_bufsize=31250 / nal_hrd=none / filler=0 / ip_ratio=1.40 / aq=3:1.00
    Encoded date : UTC 2018-05-01 22:48:05
    Tagged date : UTC 2018-05-01 22:48:05


    Audio
    ID : 2
    Format : AAC
    Format/Info : Advanced Audio Codec
    Format profile : LC
    Codec ID : mp4a-40-2
    Duration : 2 h 14 min
    Bit rate mode : Constant
    Bit rate : 224 kb/s
    Channel(s) : 2 channels
    Channel(s)_Original : 6 channels
    Channel positions : Front: L C R, Side: L R, LFE
    Sampling rate : 48.0 kHz
    Frame rate : 46.875 FPS (1024 SPF)
    Compression mode : Lossy
    Stream size : 216 MiB (13%)
    Language : English
    Default : Yes
    Alternate group : 1
    Encoded date : UTC 2018-05-01 22:48:05
    Tagged date : UTC 2018-05-01 22:48:05



    Screens:



    [​IMG] [​IMG] [​IMG]


    [​IMG]

    Download Links:

    Hidden Content:
    **Hidden Content: You must click 'Like' before you can see the hidden data contained here.**
     

Share This Page

Share