Dismiss Notice
How to See Hidden Content------------------------------- CLICK HERE--------------

Coco (2017) 720p BluRay x264 [Dual-Audio][English DD 5.1 + Hindi DD 5.1]

Discussion in 'Hollywood-Dual Audio' started by FREEPREMIUM, Feb 28, 2018.

  1. FREEPREMIUM

    FREEPREMIUM Administrator Staff Member Administrator

    Joined:
    Apr 18, 2017
    Messages:
    2,304
    Likes Received:
    56,606
    Trophy Points:
    113
    [​IMG]

    Code:
    Ratings: 8.6/10
    
    Genere:       Animation, Adventure, Comedy
    
    General
    Format                      : Matroska
    File size                   : 1.03 GiB
    Duration                    : 1 h 45 min
    Overall bit rate            : 1 400 kb/s
    
    Video
    ID                          : 1
    Format                      : AVC
    Codec ID                    : V_MPEG4/ISO/AVC
    Duration                    : 1 h 45 min
    Bit rate                    : 950 kb/s
    Width                       : 1 280 pixels
    Height                      : 536 pixels
    Frame rate                  : 23.976 (24000/1001) FPS
    Stream size                 : 714 MiB (68%)
    Language                    : Hindi
    Default                     : Yes
    Forced                      : No
    
    Audio #1
    ID                          : 2
    Format                      : AC-3
    Codec ID                    : A_AC3
    Duration                    : 1 h 45 min
    Bit rate mode               : Constant
    Bit rate                    : 224 kb/s
    Channel(s)                  : 6 channels
    Stream size                 : 168 MiB (16%)
    Language                    : Hindi
    Default                     : Yes
    Forced                      : No
    
    Audio #2
    ID                          : 3
    Format                      : AC-3
    Codec ID                    : A_AC3
    Duration                    : 1 h 45 min
    Bit rate mode               : Constant
    Bit rate                    : 224 kb/s
    Channel(s)                  : 6 channels
    Stream size                 : 168 MiB (16%)
    Language                    : English
    Default                     : No
    Forced                      : No
    
    Screens

    [​IMG] [​IMG] [​IMG] [​IMG] [​IMG] [​IMG] [​IMG] [​IMG] [​IMG] [​IMG]

    Download Links

    Hidden Content:
    **Hidden Content: You must click 'Like' before you can see the hidden data contained here.**
     
    Nitish377, navigator and rohit8928 like this.

Share This Page

Share