Dismiss Notice
How to See Hidden Content------------------------------- CLICK HERE--------------

Doctor Strange 2016 Blu-Ray 1080p x264 Dual Audio (EngHin DD 5.1) (HDSector)

Discussion in 'Hollywood-Dual Audio' started by coolvivs, Aug 25, 2017.

  1. coolvivs

    coolvivs Member

    Joined:
    Jun 28, 2017
    Messages:
    11
    Likes Received:
    32
    Trophy Points:
    13
    Gender:
    Male
    [​IMG]

    http://www.imdb.com/title/tt1211837/

    [​IMG]

    General
    aFormat : Matroska
    Format version : Version 4 / Version 2
    File size : 4.00 GB
    Duration : 1h 54mn
    Overall bit rate : 4 993 Kbps

    Video
    ID : 1
    Format : AVC
    Format/Info : Advanced Video Codec
    Format profile : [email protected]
    Format settings, CABAC : Yes
    Format settings, ReFrames : 5 frames
    Codec ID : V_MPEG4/ISO/AVC
    Duration : 1h 54mn
    Bit rate : 3 700 Kbps
    Width : 1 920 pixels
    Height : 800 pixels
    Display aspect ratio : 2.40:1
    Frame rate mode : Constant
    Frame rate : 23.976 fps

    Audio #1
    ID : 2
    Format : AC-3
    Format/Info : Audio Coding 3
    Mode extension : CM (complete main)
    Format settings, Endianness : Big
    Codec ID : A_AC3
    Duration : 1h 54mn
    Bit rate mode : Constant
    Bit rate : 640 Kbps
    Channel(s) : 6 channels
    Channel positions : Front: L C R, Side: L R, LFE
    Sampling rate : 48.0 KHz
    Bit depth : 16 bits
    Compression mode : Lossy
    Stream size : 526 MiB (13%)
    Language : Hindi
    Default : Yes
    Forced : No

    Audio #2
    ID : 3
    Format : AC-3
    Format/Info : Audio Coding 3
    Mode extension : CM (complete main)
    Format settings, Endianness : Big
    Codec ID : A_AC3
    Duration : 1h 54mn
    Bit rate mode : Constant
    Bit rate : 640 Kbps
    Channel(s) : 6 channels
    Channel positions : Front: L C R, Side: L R, LFE
    Sampling rate : 48.0 KHz
    Bit depth : 16 bits
    Compression mode : Lossy
    Stream size : 526 MiB (13%)
    Language : English
    Default : No
    Forced : No

    Text
    ID : 4
    Format : PGS
    Muxing mode : zlib
    Codec ID : S_HDMV/PGS
    Codec ID/Info : The same subtitle format used on BDs/HD-DVDs
    Language : English
    Default : Yes
    Forced : No

    [​IMG]
    [​IMG]

    [​IMG]
    [​IMG]
    [​IMG] [​IMG]
    [​IMG]
    Hidden Content:
    **Hidden Content: You must click 'Like' before you can see the hidden data contained here.**
    CREDIT: HDSector
     
    Last edited: Aug 25, 2017

  2. STARK

    STARK Owner! Staff Member Administrator

    Joined:
    Apr 26, 2017
    Messages:
    47
    Likes Received:
    336
    Trophy Points:
    93
    Gender:
    Male
    Next time use postimage.io for image links. Don't use other blogs images.
     
    Sanchit and honey aggarwal like this.

  3. Son Tran

    Son Tran Nakata321

    Joined:
    Dec 4, 2017
    Messages:
    219
    Likes Received:
    7
    Trophy Points:
    18
    Gender:
    Male
    Location:
    USA
    Thanks a lot!
     

  4. Bhushan Panchal

    Bhushan Panchal New Member

    Joined:
    Feb 9, 2018
    Messages:
    1
    Likes Received:
    0
    Trophy Points:
    1
    Thank you so much
     

Share This Page

Share