Dismiss Notice
How to See Hidden Content------------------------------- CLICK HERE--------------

Journey to the West 2 2017 720p BluRay Hindi Chinese AC3

Discussion in 'Hollywood-Dual Audio' started by FREEPREMIUM, Dec 26, 2017.

  1. FREEPREMIUM

    FREEPREMIUM Administrator Staff Member Administrator

    Joined:
    Apr 18, 2017
    Messages:
    1,442
    Likes Received:
    27,971
    Trophy Points:
    113
    [​IMG]

    Code:
    General
    Unique ID                                : 240896650626391579907460112679879221364 (0xB53B01DE0BA748F5BDEA65BAB306A074)
    Format                                   : Matroska
    Format version                           : Version 4 / Version 2
    File size                                : 1.11 GiB
    Duration                                 : 1 h 48 min
    Overall bit rate                         : 1 464 kb/s
    Encoded date                             : UTC 2017-12-24 18:13:15
    Writing application                      : mkvmerge v14.0.0 ('Flow') 32bit
    Writing library                          : libebml v1.3.4 + libmatroska v1.4.5
    
    Video
    ID                                       : 1
    Format                                   : AVC
    Format/Info                              : Advanced Video Codec
    Format profile                           : [email protected]
    Format settings                          : CABAC / 8 Ref Frames
    Format settings, CABAC                   : Yes
    Format settings, RefFrames               : 8 frames
    Codec ID                                 : V_MPEG4/ISO/AVC
    Duration                                 : 1 h 48 min
    Bit rate                                 : 1 014 kb/s
    Width                                    : 1 280 pixels
    Height                                   : 692 pixels
    Display aspect ratio                     : 1.85:1
    Frame rate mode                          : Constant
    Frame rate                               : 23.976 (24000/1001) FPS
    Color space                              : YUV
    Chroma subsampling                       : 4:2:0
    Bit depth                                : 8 bits
    Scan type                                : Progressive
    Bits/(Pixel*Frame)                       : 0.048
    Stream size                              : 787 MiB (69%)
    Title                                    : LOKI
    Writing library                          : x264 core 152 r2851 ba24899
    Encoding settings                        : cabac=1 / ref=8 / deblock=1:-1:-1 / analyse=0x3:0x133 / me=umh / subme=9 / psy=1 / psy_rd=1.00:0.15 / mixed_ref=1 / me_range=32 / chroma_me=1 / trellis=2 / 8x8dct=1 / cqm=0 / deadzone=21,11 / fast_pskip=1 / chroma_qp_offset=-3 / threads=12 / lookahead_threads=1 / sliced_threads=0 / nr=0 / decimate=1 / interlaced=0 / bluray_compat=0 / constrained_intra=0 / bframes=3 / b_pyramid=2 / b_adapt=2 / b_bias=0 / direct=3 / weightb=1 / open_gop=0 / weightp=2 / keyint=230 / keyint_min=23 / scenecut=40 / intra_refresh=0 / rc_lookahead=60 / rc=2pass / mbtree=1 / bitrate=1014 / ratetol=1.0 / qcomp=0.60 / qpmin=0 / qpmax=69 / qpstep=4 / cplxblur=20.0 / qblur=0.5 / ip_ratio=1.40 / aq=1:1.00
    Language                                 : Hindi
    Default                                  : Yes
    Forced                                   : Yes
    Color range                              : Limited
    Color primaries                          : BT.709
    Transfer characteristics                 : BT.709
    Matrix coefficients                      : BT.709
    
    Audio #1
    ID                                       : 2
    Format                                   : AC-3
    Format/Info                              : Audio Coding 3
    Codec ID                                 : A_AC3
    Duration                                 : 1 h 48 min
    Bit rate mode                            : Constant
    Bit rate                                 : 224 kb/s
    Channel(s)                               : 2 channels
    Channel positions                        : Front: L R
    Sampling rate                            : 48.0 kHz
    Frame rate                               : 31.250 FPS (1536 SPF)
    Bit depth                                : 16 bits
    Compression mode                         : Lossy
    Stream size                              : 174 MiB (15%)
    Title                                    : LOKI
    Language                                 : Hindi
    Service kind                             : Complete Main
    Default                                  : Yes
    Forced                                   : Yes
    
    Audio #2
    ID                                       : 3
    Format                                   : AC-3
    Format/Info                              : Audio Coding 3
    Codec ID                                 : A_AC3
    Duration                                 : 1 h 48 min
    Bit rate mode                            : Constant
    Bit rate                                 : 224 kb/s
    Channel(s)                               : 6 channels
    Channel positions                        : Front: L C R, Side: L R, LFE
    Sampling rate                            : 48.0 kHz
    Frame rate                               : 31.250 FPS (1536 SPF)
    Bit depth                                : 16 bits
    Compression mode                         : Lossy
    Stream size                              : 174 MiB (15%)
    Title                                    : LOKI
    Language                                 : Chinese
    Service kind                             : Complete Main
    Default                                  : No
    Forced                                   : No
    
    Text #1
    ID                                       : 4
    Format                                   : UTF-8
    Codec ID                                 : S_TEXT/UTF8
    Codec ID/Info                            : UTF-8 Plain Text
    Duration                                 : 1 h 47 min
    Bit rate                                 : 45 b/s
    Count of elements                        : 1490
    Stream size                              : 36.0 KiB (0%)
    Title                                    : LOKI
    Language                                 : English
    Default                                  : Yes
    Forced                                   : Yes
    
    Text #2
    ID                                       : 5
    Format                                   : UTF-8
    Codec ID                                 : S_TEXT/UTF8
    Codec ID/Info                            : UTF-8 Plain Text
    Duration                                 : 1 h 47 min
    Bit rate                                 : 38 b/s
    Count of elements                        : 1488
    Stream size                              : 30.5 KiB (0%)
    Title                                    : LOKI @ Simplified
    Language                                 : Chinese
    Default                                  : No
    Forced                                   : No
    
    Menu
    00:00:00.000                             : en:00:00:00.000
    00:11:27.979                             : en:00:11:27.979
    00:20:12.086                             : en:00:20:12.086
    00:30:57.939                             : en:00:30:57.939
    00:39:09.806                             : en:00:39:09.806
    00:46:19.694                             : en:00:46:19.694
    00:55:13.060                             : en:00:55:13.060
    01:03:23.633                             : en:01:03:23.633
    01:13:11.804                             : en:01:13:11.804
    01:22:17.432                             : en:01:22:17.432
    01:29:55.682                             : en:01:29:55.682
    01:39:31.841                             : en:01:39:31.841
    
    Screens
    [​IMG] [​IMG] [​IMG] [​IMG] [​IMG]

    Download Links
    Hidden Content:
    **Hidden Content: You must click 'Like' before you can see the hidden data contained here.**
     

Share This Page

Share