Dismiss Notice
How to See Hidden Content------------------------------- CLICK HERE--------------

Justice League 2017 HC HDRip X264 AC3 - 1.3 GB

Discussion in 'Hollywood-English' started by FREEPREMIUM, Dec 22, 2017.

  1. FREEPREMIUM

    FREEPREMIUM Administrator Staff Member Administrator

    Joined:
    Apr 18, 2017
    Messages:
    2,208
    Likes Received:
    52,429
    Trophy Points:
    113

    [​IMG]


    Media Info :

    General
    Unique ID : 254955147559823072091715200191914909521 (0xBFCE9347EAB202018B1E9AEC12ED1F51)
    Format : Matroska
    Format version : Version 4 / Version 2
    File size : 1.31 GiB
    Duration : 1h 56mn
    Overall bit rate : 1 602 Kbps
    Encoded date : UTC 2017-12-22T02:40:06Z
    Writing application : mkvmerge v6.7.0 ('Back to the Ground') 64bit built on Jan 8 2014 15:10:52
    Writing library : Lavf55.12.0

    Video
    ID : 1
    Format : AVC
    Format/Info : Advanced Video Codec
    Format profile : [email protected]
    Format settings, CABAC : Yes
    Format settings, ReFrames : 4 frames
    Codec ID : V_MPEG4/ISO/AVC
    Duration : 1h 56mn
    Bit rate : 1 400 Kbps
    Width : 720 pixels
    Height : 406 pixels
    Display aspect ratio : 16:9
    Frame rate mode : Constant
    Frame rate : 29.970 fps
    Color space : YUV
    Chroma subsampling : 4:2:0
    Bit depth : 8 bits
    Scan type : Progressive
    Bits/(Pixel*Frame) : 0.160
    Stream size : 1.13 GiB (86%)
    Writing library : x264 core 142 r2479 dd79a61
    Encoding settings : cabac=1 / ref=1 / deblock=1:0:0 / analyse=0x3:0x113 / me=hex / subme=2 / psy=1 / psy_rd=1.00:0.00 / mixed_ref=0 / me_range=16 / chroma_me=1 / trellis=0 / 8x8dct=1 / cqm=0 / deadzone=21,11 / fast_pskip=1 / chroma_qp_offset=0 / threads=12 / lookahead_threads=3 / sliced_threads=0 / nr=0 / decimate=1 / interlaced=0 / bluray_compat=0 / constrained_intra=0 / bframes=3 / b_pyramid=2 / b_adapt=1 / b_bias=0 / direct=1 / weightb=1 / open_gop=0 / weightp=1 / keyint=300 / keyint_min=30 / scenecut=40 / intra_refresh=0 / rc_lookahead=10 / rc=abr / mbtree=1 / bitrate=1400 / ratetol=1.0 / qcomp=0.60 / qpmin=0 / qpmax=69 / qpstep=4 / vbv_maxrate=62500 / vbv_bufsize=78125 / nal_hrd=none / filler=0 / ip_ratio=1.40 / aq=1:1.00
    Default : Yes
    Forced : No
    Color range : Limited
    Color primaries : BT.709
    Transfer characteristics : BT.709
    Matrix coefficients : BT.709

    Audio
    ID : 2
    Format : AC-3
    Format/Info : Audio Coding 3
    Mode extension : CM (complete main)
    Format settings, Endianness : Big
    Codec ID : A_AC3
    Duration : 1h 56mn
    Bit rate mode : Constant
    Bit rate : 192 Kbps
    Channel(s) : 2 channels
    Channel positions : Front: L R
    Sampling rate : 48.0 KHz
    Compression mode : Lossy
    Delay relative to video : -5ms
    Stream size : 161 MiB (12%)
    Title : Stereo
    Default : Yes
    Forced : No


    Screens:

    [​IMG] [​IMG] [​IMG]


    [​IMG]

    Download Links:

    Hidden Content:
    **Hidden Content: You must click 'Like' before you can see the hidden data contained here.**
     
    JUST FUN, Arnav, Ediy2003 and 6 others like this.

  2. FREEPREMIUM

    FREEPREMIUM Administrator Staff Member Administrator

    Joined:
    Apr 18, 2017
    Messages:
    2,208
    Likes Received:
    52,429
    Trophy Points:
    113
    Just click on Spoiler above download links
     

  3. pracky

    pracky Member

    Joined:
    Sep 22, 2017
    Messages:
    66
    Likes Received:
    23
    Trophy Points:
    8
    Can u provide rapid gator link please
     
    Last edited by a moderator: Dec 22, 2017

Share This Page

Share