Dismiss Notice
How to See Hidden Content------------------------------- CLICK HERE--------------

Madagascar: Escape 2 Africa (2008) 720p BrRip x264 [Dual Audio][ English - Hindi DD 6 CH ]Multi Subs

Discussion in 'Hollywood-Dual Audio' started by FREEPREMIUM, Jun 30, 2018.

  1. FREEPREMIUM

    FREEPREMIUM Administrator Staff Member Administrator

    Joined:
    Apr 18, 2017
    Messages:
    2,515
    Likes Received:
    62,512
    Trophy Points:
    113
    [​IMG]

    Code:
    IMDB           :       https://www.imdb.com/title/tt0479952/
    
    
    General
    
    Format                      : Matroska
    Format version              : Version 4 / Version 2
    File size                   : 1.09 GiB
    Duration                    : 1 h 29 min
    Overall bit rate            : 1 753 kb/s
    Encoded date                : UTC 2018-06-28 04:53:36
    Writing application         : mkvmerge v20.0.0 ('I Am The Sun') 32-bit
    Writing library             : libebml v1.3.5 + libmatroska v1.4.8
    
    
    Video
    ID                          : 1
    Format                      : AVC
    Format/Info                 : Advanced Video Codec
    Format profile              : [email protected]
    Format settings             : CABAC / 9 Ref Frames
    Format settings, CABAC      : Yes
    Format settings, ReFrames   : 9 frames
    Codec ID                    : V_MPEG4/ISO/AVC
    Duration                    : 1 h 29 min
    Bit rate                    : 995 kb/s
    Width                       : 1 280 pixels
    Height                      : 720 pixels
    Display aspect ratio        : 16:9
    Frame rate mode             : Constant
    Frame rate                  : 23.976 (24000/1001) FPS
    Color space                 : YUV
    Chroma subsampling          : 4:2:0
    Bit depth                   : 8 bits
    Scan type                   : Progressive
    Bits/(Pixel*Frame)          : 0.045
    Stream size                 : 636 MiB (57%)
    Writing library             : x264 core 125 r2200 999b753
    Encoding settings           : cabac=1 / ref=9 / deblock=1:0:0 / analyse=0x3:0x113 / me=hex / subme=7 / psy=1 / psy_rd=1.00:0.00 / mixed_ref=1 / me_range=16 / chroma_me=1 / trellis=1 / 8x8dct=1 / cqm=0 / deadzone=21,11 / fast_pskip=1 / chroma_qp_offset=-2 / threads=6 / lookahead_threads=1 / sliced_threads=0 / nr=0 / decimate=1 / interlaced=0 / bluray_compat=0 / constrained_intra=0 / bframes=8 / b_pyramid=2 / b_adapt=1 / b_bias=0 / direct=1 / weightb=1 / open_gop=0 / weightp=2 / keyint=240 / keyint_min=23 / scenecut=40 / intra_refresh=0 / rc_lookahead=40 / rc=2pass / mbtree=1 / bitrate=995 / ratetol=1.0 / qcomp=0.60 / qpmin=10 / qpmax=51 / qpstep=4 / cplxblur=20.0 / qblur=0.5 / ip_ratio=1.40 / aq=1:1.00
    Language                    : English
    Default                     : Yes
    Forced                      : No
    
    
    Audio #1
    ID                          : 2
    Format                      : AC-3
    Format/Info                 : Audio Coding 3
    Codec ID                    : A_AC3
    Duration                    : 1 h 29 min
    Bit rate mode               : Constant
    Bit rate                    : 640 kb/s
    Channel(s)                  : 6 channels
    Channel positions           : Front: L C R, Side: L R, LFE
    Sampling rate               : 48.0 kHz
    Frame rate                  : 31.250 FPS (1536 SPF)
    Bit depth                   : 16 bits
    Compression mode            : Lossy
    Delay relative to video     : -83 ms
    Stream size                 : 409 MiB (37%)
    Language                    : Hindi
    Service kind                : Complete Main
    Default                     : Yes
    Forced                      : Yes
    
    
    Audio #2
    ID                          : 3
    Format                      : AAC
    Format/Info                 : Advanced Audio Codec
    Format profile              : LC
    Codec ID                    : A_AAC-2
    Duration                    : 1 h 29 min
    Bit rate                    : 96.0 kb/s
    Channel(s)                  : 2 channels
    Channel positions           : Front: L R
    Sampling rate               : 48.0 kHz
    Frame rate                  : 46.875 FPS (1024 SPF)
    Compression mode            : Lossy
    Delay relative to video     : -83 ms
    Stream size                 : 61.2 MiB (5%)
    Language                    : English
    Default                     : No
    Forced                      : No
    
    
    Text #1
    ID                          : 4
    Format                      : UTF-8
    Codec ID                    : S_TEXT/UTF8
    Codec ID/Info               : UTF-8 Plain Text
    Duration                    : 1 h 19 min
    Bit rate                    : 70 b/s
    Count of elements           : 1268
    Stream size                 : 41.2 KiB (0%)
    Language                    : English
    Default                     : No
    Forced                      : Yes
    
    
    Text #2
    ID                          : 5
    Format                      : PGS
    Muxing mode                 : zlib
    Codec ID                    : S_HDMV/PGS
    Codec ID/Info               : Picture based subtitle format used on BDs/HD-DVDs
    Duration                    : 1 h 19 min
    Bit rate                    : 45.2 kb/s
    Count of elements           : 2527
    Stream size                 : 25.7 MiB (2%)
    Language                    : English
    Default                     : No
    Forced                      : No
    
    
    Text #3
    ID                          : 6
    Format                      : PGS
    Muxing mode                 : zlib
    Codec ID                    : S_HDMV/PGS
    Codec ID/Info               : Picture based subtitle format used on BDs/HD-DVDs
    Duration                    : 1 h 28 min
    Bit rate                    : 23.1 kb/s
    Count of elements           : 2497
    Stream size                 : 14.7 MiB (1%)
    Language                    : Hindi
    Default                     : Yes
    Forced                      : Yes
    


    Screens


    [​IMG]
    [​IMG] [​IMG] [​IMG] [​IMG] [​IMG] [​IMG] [​IMG]


    Download Links


    Hidden Content:
    **Hidden Content: You must click 'Like' before you can see the hidden data contained here.**
     

  2. ABID SAIFI

    ABID SAIFI Member

    Joined:
    Sep 17, 2018
    Messages:
    31
    Likes Received:
    0
    Trophy Points:
    6
    Gender:
    Male
    good movie i like it very much
     

Share This Page

Share