Dismiss Notice
How to See Hidden Content------------------------------- CLICK HERE--------------

WWE Extreme Rules 2017 PPV WEB h264 - HEEL

Discussion in 'Videos' started by FREEPREMIUM, Jun 5, 2017.

  1. FREEPREMIUM

    FREEPREMIUM Administrator Staff Member Administrator

    Joined:
    Apr 18, 2017
    Messages:
    657
    Likes Received:
    11,285
    Trophy Points:
    93
    [​IMG]



    Information

    General
    Unique ID : 212260373009122644435619741497126383953 (0x9FAFDC5FE994360E930A5DBF48357151)
    Format : Matroska
    Format version : Version 4 / Version 2
    File size : 2.06 GiB
    Duration : 2 h 44 min
    Overall bit rate : 1 796 kb/s
    Movie name : Visit http://freepremium.in
    Encoded date : UTC 2017-06-05 04:07:51
    Writing application : mkvmerge v12.0.0 ('Trust / Lust') 32bit
    Writing library : libebml v1.3.4 + libmatroska v1.4.5

    Video
    ID : 1
    Format : AVC
    Format/Info : Advanced Video Codec
    Format profile : [email protected]
    Format settings, CABAC : Yes
    Format settings, ReFrames : 4 frames
    Codec ID : V_MPEG4/ISO/AVC
    Duration : 2 h 44 min
    Bit rate mode : Constant
    Bit rate : 1 704 kb/s
    Width : 896 pixels
    Height : 504 pixels
    Display aspect ratio : 16:9
    Frame rate mode : Constant
    Frame rate : 29.970 (30000/1001) FPS
    Color space : YUV
    Chroma subsampling : 4:2:0
    Bit depth : 8 bits
    Scan type : Progressive
    Bits/(Pixel*Frame) : 0.126
    Stream size : 1.95 GiB (95%)
    Title : www.freepremium.in
    Default : Yes
    Forced : No

    Audio
    ID : 2
    Format : AAC
    Format/Info : Advanced Audio Codec
    Format profile : LC
    Codec ID : A_AAC
    Duration : 2 h 44 min
    Bit rate : 93.5 kb/s
    Channel(s) : 2 channels
    Channel positions : Front: L R
    Sampling rate : 48.0 kHz
    Frame rate : 46.875 FPS (1024 spf)
    Compression mode : Lossy
    Delay relative to video : 4 ms
    Stream size : 110 MiB (5%)
    Title : www.freepremium.in
    Language : English
    Default : Yes
    Forced : No


    Scrren Shots

    [​IMG]

    [​IMG]


    Download Links


    Hidden Content:
    **Hidden Content: You must click 'Like' before you can see the hidden data contained here.**

     

Share This Page

Share